Календарь
«  Апрель 2014  »
ПнВтСрЧтПтСбВс
 123456
78910111213
14151617181920
21222324252627
282930
Статистика

Онлайн всего: 1
Гостей: 1
Пользователей: 0
Главная » 2014 » Апрель » 17 » Скачать Пётр Кононов - Изменится ли судьба, если назначить себе иную дату рождения?
05:30
Скачать Пётр Кононов - Изменится ли судьба, если назначить себе иную дату рождения?

Пётр Кононов - Изменится ли судьба, если назначить себе иную дату рождения? скачать

Все фильмы на литеру 'М ...

Скачать

Размер: 2.7 ГБ
Сидов: 0
Личей: неизвестно
Добавлен в базу: неизвестно
Файлы в архиве: Пётр Кононов_ Изменится ли судьба, если назначить себе иную дату рождения.mp4

Пётр Кононов - Изменится ли судьба, если назначить себе иную дату рождения?
Автор: Пётр Кононов
Страна: Россия
Жанр: Русская психоаналитика
Тип: Семинар
Год выпуска: 2014
Продолжительность: 2:08:55
Язык: русский
Описание: В интернете обсуждается цель изменения даты рождения широко известными людьми, например, Петром I, Сталиным. Результаты многолетних исследований показали, что в дате рождения зашифрованы оценки, которая получила душа по итогам предыдущих воплощений, и они находят свое отражение не только в характере самой души, но и в основных функциях приданного ей человека. Что же может произойти, если сознание человека захочет иную дату рождения?
Качество видео: WebRip
Формат видео: MP4
Видео: 1280х720, H.264, 2812kbps, 30fps
Аудио: 192 kb/s, 2ch, 44100Hz Скриншоты MediaInfo Полное имя : Кононов П.Н. Изменится ли судьба, если назначить себе иную дату рождения?
Формат : MPEG-4
Профиль формата : Base Media / Version 2
Идентификатор кодека : mp42
Размер файла : 2,71 Гбайт
Продолжительность : 2 ч. 8 м.
Режим общего битрейта : Переменный
Общий поток : 3005 Кбит/сек
Дата кодирования : UTC 2014-04-07 00:28:15
Дата пометки : UTC 2014-04-07 00:32:50
©TIM : 00:00:00:00
©TSC : 25
©TSZ : 1
Видео
Идентификатор : 1
Формат : AVC
Формат/Информация : Advanced Video Codec
Профиль формата : High@L3.1
Параметр CABAC формата : Да
Параметр ReFrames формата : 3 кадра
Идентификатор кодека : avc1
Идентификатор кодека/Информация : Advanced Video Coding
Продолжительность : 2 ч. 8 м.
Битрейт : 2812 Кбит/сек
Ширина : 1280 пикселей
Высота : 720 пикселей
Соотношение сторон : 16:9
Режим частоты кадров : Переменный
Частота кадров : 25,000 кадров/сек
Минимальная частота кадров : 25,000 кадров/сек
Максимальная частота кадров : 25,025 кадров/сек
Стандарт вещания : PAL
Цветовое пространство : YUV
Субдискретизация насыщенности : 4:2:0
Битовая глубина : 8 бит
Тип развёртки : Прогрессивная
Бит/(Пиксели*Кадры) : 0.122
Размер потока : 2,53 Гбайт (94%)
Язык : English
Дата кодирования : UTC 2014-04-07 00:28:15
Дата пометки : UTC 2014-04-07 00:28:15
mdhd_Duration : 7734960
Основные цвета : BT.709
Характеристики трансфера : BT.709
Коэффициенты матрицы : BT.709
Аудио
Идентификатор : 2
Формат : AAC
Формат/Информация : Advanced Audio Codec
Профиль формата : LC
Идентификатор кодека : 40
Продолжительность : 2 ч. 8 м.
Продолжительность оригинала : 2 ч. 8 м.
Вид битрейта : Переменный
Битрейт : 192 Кбит/сек
Максимальный битрейт : 289 Кбит/сек
Каналы : 2 канала
Расположение каналов : Front: L R
Частота : 44,1 КГц
Метод сжатия : С потерями
Размер потока : 175 Мбайт (6%)
Размер потока оригинала : 175 Мбайт (6%)
Язык : English
Дата кодирования : UTC 2014-04-07 00:28:15
Дата пометки : UTC 2014-04-07 00:28:15
mdhd_Duration : 7735008 Мои раздачи по данной теме http://rutracker.org/forum/tracker.php?nm=Кононов%20П.Н.

Скачать файл через файлообменник: Скачать

Скачать через торрент: Скачать торрент

Тэги: Петр Аркадьевич Столыпин, Абельтин Э.А., Литвинова В.И, Ю. M. ЛОТМАН=Воспитание души, Толковая Библия Лопухин, Как бросить пить навсегда, Список серий телесериала, Судебные приставы в Москве, Все фильмы на литеру 'М, От порчи и сглаза - Магия и Жизнь, www.kadet.ru - кадет, суворовец

Просмотров: 143 | Добавил: staruhinplavsk | Рейтинг: 0.0/0
Всего комментариев: 0
Имя *:
Email *:
Код *: